#TITLE:Turn On That Music DJ;
#SUBTITLE:Expi3nze & sdo;
#ARTIST:Miss A;
#TITLETRANSLIT:;
#SUBTITLETRANSLIT:;
#ARTISTTRANSLIT:;
#CREDIT:;
#BANNER:bn.png;
#BACKGROUND:bg.png;
#LYRICSPATH:;
#CDTITLE:cdtitle.png;
#MUSIC:Hey DJ.mp3;
#OFFSET:-0.255;
#SAMPLESTART:40.709;
#SAMPLELENGTH:28.636;
#SELECTABLE:YES;
#BPMS:0.000=132.003,1.000=131.996,2.000=132.003,3.000=131.996,4.000=132.003,5.000=131.996,6.000=132.003,7.000=131.996,8.000=132.003,9.000=131.996,10.000=132.003,12.000=131.996,13.000=132.003,14.000=131.996,15.000=132.003,16.000=131.996,17.000=132.003,18.000=131.996,19.000=132.003,20.000=131.996,21.000=132.003,23.000=131.996,24.000=132.003,25.000=131.996,26.000=132.003,27.000=131.996,28.000=132.003,29.000=131.996,30.000=132.003,31.000=131.996,32.000=132.003,34.000=131.996,35.000=132.003,36.000=131.996,37.000=132.003,38.000=131.996,39.000=132.003,40.000=131.996,41.000=132.003,42.000=131.996,43.000=132.003,45.000=131.996,46.000=132.003,47.000=131.996,48.000=132.003,49.000=131.996,50.000=132.003,51.000=131.996,52.000=132.003,53.000=131.996,54.000=132.003,55.000=131.996,56.000=132.003,58.000=131.996,59.000=132.003,60.000=131.996,61.000=132.003,62.000=131.996,63.000=132.003,64.000=131.996,65.000=132.003,66.000=131.996,67.000=132.003,69.000=131.996,70.000=132.003,71.000=131.996,72.000=132.003,73.000=131.996,74.000=132.003,75.000=131.996,76.000=132.003,77.000=131.996,78.000=132.003,80.000=131.996,81.000=132.003,82.000=131.996,83.000=132.003,84.000=131.996,85.000=132.003,86.000=131.996,87.000=132.003,88.000=131.996,89.000=132.003,91.000=131.996,92.000=132.003,93.000=131.996,94.000=132.003,95.000=131.996,96.000=132.003,97.000=131.996,98.000=132.003,99.000=131.996,100.000=132.003,102.000=131.996,103.000=132.003,104.000=131.996,105.000=132.003,106.000=131.996,107.000=132.003,108.000=131.996,109.000=132.003,110.000=131.996,111.000=132.003,112.000=131.996,113.000=132.003,115.000=131.996,116.000=132.003,117.000=131.996,118.000=132.003,119.000=131.996,120.000=132.003,121.000=131.996,122.000=132.003,123.000=131.996,124.000=132.003,126.000=131.996,127.000=132.003,128.000=131.996,129.000=132.003,130.000=131.996,131.000=132.003,132.000=131.996,133.000=132.003,134.000=131.996,135.000=132.003,137.000=131.996,138.000=132.003,139.000=131.996,140.000=132.003,141.000=131.996,142.000=132.003,143.000=131.996,144.000=132.003,145.000=131.996,146.000=132.003,148.000=131.996,149.000=132.003,150.000=131.996,151.000=132.003,152.000=131.996,153.000=132.003,154.000=131.996,155.000=132.003,156.000=131.996,157.000=132.003,159.000=131.996,160.000=132.003,161.000=131.996,162.000=132.003,163.000=131.996,164.000=132.003,165.000=131.996,166.000=132.003,167.000=131.996,168.000=132.003,170.000=131.996,171.000=132.003,172.000=131.996,173.000=132.003,174.000=131.996,175.000=132.003,176.000=131.996,177.000=132.003,178.000=131.996,179.000=132.003,181.000=131.996,182.000=132.003,183.000=131.996,184.000=132.003,185.000=131.996,186.000=132.003,187.000=131.996,188.000=132.003,189.000=131.996,190.000=132.003,192.000=131.996,193.000=132.003,194.000=131.996,195.000=132.003,196.000=131.996,197.000=132.003,198.000=131.996,199.000=132.003,200.000=131.996,201.000=132.003,203.000=131.996,204.000=132.003,205.000=131.996,206.000=132.003,207.000=131.996,208.000=132.003,209.000=131.996,210.000=132.003,211.000=131.996,212.000=132.003,213.000=131.996,214.000=132.003,215.000=131.996,216.000=132.003,218.000=131.996,219.000=132.003,220.000=131.996,221.000=132.003,222.000=131.996,223.000=132.003,224.000=131.996;
#STOPS:;
#BGCHANGES:;
// cache tags:
#FIRSTBEAT:7.500;
#LASTBEAT:223.000;
#SONGFILENAME:Songs/SDO pack 2/Turn On That Music DJ/Hey DJ.sm;
#HASMUSIC:1;
#HASBANNER:1;
#MUSICLENGTH:102.595;
// end cache tags

//---------------dance-single - ----------------
#NOTES:
     dance-single:
     :
     Hard:
     24:
     1.000,1.000,1.000,0.653,0.595,537.000,246.000,67.000,0.000,40.000:
0000
0000
0000
0000
,
0000
0000
0000
0000
0000
0000
0000
0001
,
1000
0100
0010
0100
0001
0000
1000
0000
0000
0001
0000
0000
1100
0000
1100
0000
,
0011
0011
0110
1000
1001
0001
0110
0110
,
1100
0011
1100
0001
1100
0001
1010
0101
,
0010
0000
1100
0000
0101
0000
1001
0000
0110
0000
0011
0000
1100
1100
0000
0011
,
1000
0000
0110
0001
1100
0000
0011
1000
0101
0000
0101
0000
1010
0000
1010
0001
,
0110
0000
0110
0000
1001
0000
1000
1000
0011
0000
0100
0000
0011
0000
1100
0010
,
0101
0000
1010
0000
0011
0000
1000
0100
1010
0000
0001
0000
1100
0000
0011
1000
,
0011
0000
1100
0000
0011
0000
1100
0010
1100
0000
0011
0000
2100
0011
0100
0011
,
0110
0000
0000
0000
0110
0000
0000
3000
0011
0000
0000
0000
0011
0000
0000
0000
1100
0000
0000
0000
1100
0000
0000
0000
0012
0000
0000
0000
1000
0000
0000
0000
,
0110
0000
0000
0000
0010
0000
0000
0000
1010
0000
0000
0000
1000
0000
0000
0003
1100
0000
0000
0000
0010
0000
0000
0000
1200
0000
0000
0000
0001
0000
0000
0000
,
1010
0000
0000
0000
1000
0000
0000
0000
0011
0000
0000
0000
1000
0000
0000
0300
0011
0000
0000
0000
1000
0000
0000
0000
0120
0000
0000
0000
0001
0000
0000
0000
,
1100
0000
0000
0000
0001
0000
0000
0030
2100
0000
0000
0000
0001
0000
0010
0000
0101
0000
0010
0000
0100
0000
0000
3000
0011
0000
0000
0000
1000
0000
0000
0000
,
0110
0000
1000
0000
0110
0000
0001
0001
1010
0100
0010
0000
1002
0000
1000
0000
,
0110
0000
0000
0000
0010
0000
0000
0000
1100
0000
0000
0000
0010
0000
0100
0000
1010
0000
0000
0000
0010
0000
0000
0003
2200
0000
0000
0000
0000
0000
0000
0300
,
0021
0000
0000
0000
0000
0000
0000
0030
0102
0000
0000
0000
0000
0000
0000
0003
0210
0000
0000
0000
0000
0000
0000
3300
0021
0000
0000
0000
1000
0000
0000
0000
,
0101
0000
0000
0000
0001
0000
0000
0030
1200
0000
0000
0000
0001
0000
0001
0300
1010
0000
0001
0000
0100
0000
0000
0000
0011
0000
0000
0000
1000
0000
0000
0000
,
0110
0000
0000
0000
0001
0000
0000
0000
1100
0000
0000
0000
0011
0000
0100
0000
1010
0000
0001
0000
1100
0000
0000
0000
0012
0000
0000
0000
1000
0000
0100
0003
,
0010
0000
1000
0000
0100
0000
0000
0000
2010
0000
0001
0000
0010
0000
0100
3000
0021
0000
0000
0000
0001
0000
0000
0030
1200
0000
0000
0000
0001
0000
0010
0300
,
1000
0000
0100
0000
0010
0000
0000
0000
1002
0000
0100
0000
0010
0000
0010
0003
2100
0000
0000
0000
0001
0000
0000
3000
0120
0000
0000
0000
1000
0000
1000
0030
,
0201
0000
0010
0000
1000
0000
0000
0300
0012
0000
1000
0000
0100
0000
0010
0003
2100
0000
0000
0000
0100
0000
0000
3000
0021
0000
0000
0000
0001
0000
0001
0030
,
1000
0000
0000
0000
0010
0000
0010
0000
0201
0000
0010
0000
1000
0000
1000
0300
0012
0000
0000
0000
0010
0000
0000
0003
2100
0000
0000
0000
0010
0000
0010
0000
,
0201
0000
0000
0000
0001
0000
0000
0300
0021
0000
0000
0000
0100
0000
0100
3030
0002
0000
0000
0000
1000
0000
0000
0003
0110
0000
0000
0000
1000
0000
1000
0000
,
0110
0000
0001
0000
1100
0000
0001
0010
1100
0000
0001
0000
0210
0000
0001
0001
,
2010
0000
0000
0000
0010
0000
0000
3000
0021
0000
0000
0000
1000
0000
1000
0330
0002
0000
0000
0000
1000
0000
0000
0003
0110
0000
0000
0000
1000
0000
1000
0000
,
0011
0000
0100
0000
0011
1000
0100
0010
1001
0000
0001
0000
1010
0000
0100
0100
,
0011
0000
0001
0000
1100
0000
0001
0010
1100
0000
0010
0000
0101
0000
0010
0010
,
1001
0000
0000
0000
1000
0000
0000
0000
0210
0000
0000
0000
0010
0000
0010
0000
1001
0000
0000
0300
0001
0000
0000
0000
1100
0000
0000
0000
0010
0000
0100
0000
,
0011
0000
0001
0000
1010
0000
0100
0100
0011
0000
1000
0000
0101
0000
0010
0010
,
0101
0000
0000
0000
1000
0000
0000
0000
0120
0000
0000
0000
0001
0000
0001
0000
1100
0000
0000
0000
1000
0000
0000
0030
0101
0000
0000
0000
0011
0000
1000
0000
,
0110
0000
1100
0000
0011
0000
1000
0100
0011
0000
1000
0000
0110
0000
0011
1000
,
0110
0001
1100
0000
0011
0000
0100
0010
1100
0000
0001
0000
1100
0000
0011
0100
,
0011
0000
1100
0000
1010
0000
0001
0010
1000
0000
0001
0000
0110
0000
0110
1000
,
0011
0000
0110
0000
1001
0000
0010
0100
1010
0001
0100
0000
0011
0000
1100
0010
,
1001
0000
1001
0000
0110
0000
0001
0010
1100
0000
0010
0000
0101
0000
1100
0010
,
1001
0000
0101
0000
1010
0000
0001
0010
1100
0000
0011
0000
1010
0000
0011
1000
,
0110
0000
1001
0000
1100
0000
0010
0010
0001
0000
1100
0000
0011
0000
1100
0010
,
0101
0000
0000
0000
0101
0000
1000
0000
0120
0000
0000
0000
0001
0000
0001
0030
2100
0000
0000
0000
0100
0000
0000
3000
0012
0000
0000
0000
1000
0000
0100
0000
,
1020
0000
0000
0000
1000
0000
0000
0030
2100
0000
0000
0000
0010
0000
0013
3000
0200
0000
0000
0000
0010
0000
0000
0300
1002
0000
0000
0000
0010
0000
0010
0003
,
1100
0000
0000
0000
0001
0000
0000
0000
1200
0000
0000
0000
1000
0000
1000
0300
0021
0000
0000
0000
0001
0000
0000
0030
2100
0000
0000
0000
0100
0000
0010
0000
,
0201
0000
0000
0000
0001
0000
0000
0300
0012
0000
0000
0000
0010
0000
0100
3003
0020
0000
0000
0000
1000
0000
0000
0030
0101
0000
1000
0000
0100
0000
0010
0000
,
1100
0000
0010
0000
0001
0000
0000
0000
2100
0000
0000
0000
0010
0000
0100
3000
0012
0000
0000
0000
1000
0000
0000
0003
0210
0000
0000
0000
1000
0000
1000
0300
,
0021
0000
0000
0000
0001
0000
0000
0030
2100
0000
0000
0000
0010
0000
0100
3000
0012
0000
0000
0000
1000
0000
0000
0003
0210
0000
0000
0000
0001
0000
0001
0300
,
1020
0000
0000
0000
0001
0000
0000
0030
2100
0000
0000
0000
0001
0000
0010
0000
0101
0000
0000
3000
0001
0000
0000
0000
1100
0000
0000
0000
0010
0000
0010
0000
,
0101
0000
1000
0000
0011
1000
0100
0010
1100
0000
0001
0000
0110
0000
1000
1000
,
0110
0000
0000
0000
0001
0000
0000
0000
2200
0000
0000
0000
0000
0000
0000
3300
0022
0000
0000
0000
0000
0000
0000
0033
1100
0000
0000
0000
1100
0000
0010
0000
,
0101
1000
0101
0000
0011
1000
0100
0010
1100
0000
0011
0000
1100
0000
0001
0010
,
1000
0100
0010
0000
0001
0010
0100
0010
1000
0000
0001
0000
1100
0000
0011
0100
,
1010
0000
0001
0000
1010
0000
0000
0000
0101
0000
0010
0000
0100
0000
1000
0000
0011
0000
0000
0000
0001
0000
0000
0000
2000
0000
0000
0000
0100
0000
0000
3000
,
0020
0000
0000
0000
0001
0000
0000
0030
0200
0000
0000
0000
1000
0000
0000
0300
0012
0000
0000
0000
0010
0000
0000
0003
1100
0000
0000
0000
0011
0000
1000
0000
,
0110
0001
1100
0010
0101
0010
0100
1000
0110
0000
0001
0000
1100
0000
0001
0010
,
1000
0100
0010
0000
1000
0100
0010
0100
0001
0000
0001
0000
0110
0000
1100
0001
,
1010
0001
0110
1000
0011
1000
0100
0010
1100
0000
1000
0000
0001
0000
0100
0000
,
0010
0000
1100
0000
0011
1100
0011
1100
0011
0000
1100
0000
0002
0000
0000
0000
,
0000
0000
0000
0003
;
